Wróć   polish:Elite:board > giełda > filmy > fantasy/Sci-Fi > Medium Quality - fantasy/Sci-Fi
Medium Quality - fantasy/Sci-Fi DVDRip, BDRip, HDDVDRip, HDTVRip

Odpowiedz Szablon Trusted
 
LinkBack Narzędzia wątku Przeszukaj ten temat Wygląd

  #1 (permalink)  
Stare 12.12.2012, 09:09
Avatar Aeon
Zaufany użytkownik
 
Zarejestrowany: Jul 2007
Skąd: Płock
Postów: 1 895
Postów w giełdzie: 651
flaga Odp: [FS] Zaginiony Świat: Park Jurajski / Jurassic Park II (1997) *DVDRip* Lektor PL

Jurassic.Park.II.The.Lost.World.1997.PL.480p.BDRip.XviD.AC3-ELiTE | Lektor PL

Opis/Screeny
Spoiler

 


Dane Techniczne:
Kod:
Jurassic.Park.II.The.Lost.World.1997.PL.480p.BDRip.XviD.AC3-ELiTE 

RELEASE DATE.....: 28.10.2011 
RUNTIME..........: 02:08:46 min     
AUDIO LANGUAGE...: Polish Lector 
GENRE............: Action | Adventure | Sci-Fi 
            
Video............: 1971 Kbps XviD                           
Resolution.......: 720 x 384 
Frame Rate.......: 23.976 FPS   
Audio............: 448 kb/s 6 chnls AC3 Polish 
Subtitles........: N/A                               
SA...............: No B-VOP,No Qpel,No GMC                 
Video Size.......: 2.19 GB                                               
Source...........: Blu-Ray 1080p VC-1 DTS-HD MA-HDChina 

THiS GROUP WiLL BE LEGEN...DARY!
Opis Uploadu:
Kod:
Wielkość uploadu: 2.19 GB
Ilość danych naprawczych: 0%
Zawartość uploadu: AVI
Wersja językowa: Lektor PL
Hasło: Brak
Download: Single Link's
Kod:
http://turbobit.net/.../Jurassic.Park.II.The.Lost.World.1997.PL.480p.BDRip.XviD.AC3-ELiTE.avi.html
Download: 1023 MB Link's
Kod:
http://egofiles.com/...
http://egofiles.com/...
http://egofiles.com/...

  #2 (permalink)  
Stare 16.05.2013, 10:24
Avatar bateryjka
Senior Member
 
Zarejestrowany: May 2009
Skąd: ukryte
Postów: 1 871
Postów w giełdzie: 1 871
flaga Odp: [FS] Zaginiony Świat: Park Jurajski / Jurassic Park II (1997) *DVDRip* Lektor PL

Zaginiony Świat: Jurassic Park / The Lost World Jurassic Park (1997) PL.BRRip.XViD-SLiSU

Kod:
Format                                   : AVI
Format/Info                              : Audio Video Interleave
File size                                : 702 MiB
Duration                                 : 2h 8mn
Overall bit rate                         : 762 Kbps

Video
ID                                       : 0
Format                                   : MPEG-4 Visual
Format profile                           : Advanced Simple@L5
Format settings, BVOP                    : 2
Format settings, QPel                    : No
Format settings, GMC                     : No warppoints
Format settings, Matrix                  : Default (H.263)
Codec ID                                 : XVID
Codec ID/Hint                            : XviD
Duration                                 : 2h 8mn
Bit rate                                 : 621 Kbps
Width                                    : 640 pixels
Height                                   : 352 pixels
Display aspect ratio                     : 16:9
Frame rate                               : 23.976 fps
Color space                              : YUV
Chroma subsampling                       : 4:2:0
Bit depth                                : 8 bits
Scan type                                : Progressive
Compression mode                         : Lossy
Bits/(Pixel*Frame)                       : 0.115
Stream size                              : 572 MiB (82%)
Writing library                          : XviD 1.2.1 (UTC 2008-12-04)

Audio
ID                                       : 1
Format                                   : MPEG Audio
Format version                           : Version 1
Format profile                           : Layer 3
Codec ID                                 : 55
Codec ID/Hint                            : MP3
Duration                                 : 2h 8mn
Source duration                          : 2h 8mn
Bit rate mode                            : Constant
Bit rate                                 : 128 Kbps
Channel(s)                               : 2 channels
Sampling rate                            : 48.0 KHz
Compression mode                         : Lossy
Stream size                              : 118 MiB (17%)
Alignment                                : Split accross interleaves
Interleave, duration                     : 24 ms (0.58 video frame)
Writing library                          : LAMEI$\u02dbFÚ@

source: HDBT [THX]
Kod:
Waga: 702mb
Zawartość Uploadu: Plik .Avi
Wersja Językowa: PL Profesjonalny
Dane Naprawcze: 2% 
Hasło: Brak
Sample


DOWNLOAD LiNKS - 1PART=400MB:
Bez hasła || 2% danych naprawczych || Można pobierać na przemian

Kod:
http://www.hellupload.com/.../park.part1.rar.html
http://www.hellupload.com/.../park.part2.rar.html


Kod:
http://egofiles.com/...
http://egofiles.com/...


Kod:
http://catshare.net/.../park.part2.rar
http://catshare.net/.../park.part1.rar
Odpowiedz Szablon

Szybka odpowiedź
Antispam, complete the task: 
 
Wiadomość:
Opcje

Narzędzia wątku Przeszukaj ten temat
Przeszukaj ten temat:

Zaawansowane wyszukiwanie
Wygląd

Zasady postowania
Nie możesz zakładać nowych tematów
Nie możesz pisać wiadomości
Nie możesz dodawać załączników
Nie możesz edytować swoich postów

BBCode jest Włączony
EmotikonyWłączony
[IMG] kod jest Włączony
HTML kod jest Wyłączony
Trackbacks are Wyłączony
Pingbacks are Wyłączony
Refbacks are Wyłączony


Podobne wątki
Temat Autor wątku Forum Odpowiedzi Ostatni post/autor
[RS] Park Jurajski 3 / Jurassic Park III (2001) *DVDRip Lektor PL* andi22 Medium Quality - fantasy/Sci-Fi 1 12.12.2012 09:10
[RS] Park Jurajski / Jurassic Park (1993) *DVDRip Eng/PL* flesz Medium Quality - fantasy/Sci-Fi 3 12.12.2012 09:07


Wszystkie czasy w strefie GMT +2. Teraz jest 16:22.

Powered by vBulletin® Version 3.8.8 Beta 3
Copyright ©2000 - 2014, Jelsoft Enterprises Ltd.
Search Engine Friendly URLs by vBSEO 3.5.2
Tłumaczenie: vBHELP.pl - Polskie wsparcie vBulletin
1406557327

1 2 3 4 5 6 7 8 9 10 11 12 13 14 15 16 17 18 19 20 21 22 23 24 25 26 27 28 29 30 31 32 33 34 35 36 37 38 39 40 41 42 43 44 45 46 47 48 49 50 51 52 53 54 55 56 57 58 59 60 61 62 63 64 65 66 67 68 69 70 71 72 73 74 75 76 77 78 79 80 81 82 83 84 85 86 87 88 89 90 91 92 93 94 95 96 97 98 99 100 101 102 103 104 105 106 107 108 109 110 111 112 113 114 115 116 117 118 119 120 121 122 123 124 125 126 127 128 129 130 131 132 133 134 135 136 137 138 139 140 141 142 143 144 145 146 147 148 149 150 151 152 153 154 155 156 157 158 159 160 161 162 163 164 165 166 167 168 169 170 171 172 173 174 175 176 177 178 179 180 181 182 183 184 185 186 187 188 189 190 191 192 193 194 195 196 197 198 199 200 201 202 203 204 205 206 207 208 209 210 211 212 213 214 215 216 217 218 219 220 221 222 223 224 225 226 227 228 229 230 231 232 233 234 235 236 237 238 239 240 241 242 243 244 245 246 247 248 249 250 251 252 253 254 255 256 257 258 259 260 261 262 263 264 265 266 267 268 269 270 271 272 273 274 275 276 277 278 279 280 281 282 283 284 285 286 287 288 289 290 291 292 293 294 295 296 297 298 299 300 301 302 303 304 305 306 307 308 309 310 311 312 313 314 315 316 317 318 319 320 321 322 323 324 325 326 327 328 329 330 331 332 333 334 335 336 337 338 339 340 341 342 343 344 345